Skip to main content

Was (Not Was) Live at Ram's Head Onstage on 2008-05-03




Was (Not Was)
May 3, 2008
Ram's Head Onstage
Annapolis MD

Don Was - bass
David Was - flute, harp, vox
Sweet Pea Atkinson - vox
Harry Bowens aka Sir Harry - vox
Donald Ray Mitchell - vox
Randy Jacobs - gtr/vox
Paul "Shilts" Weimar - sax
Jamie Mahoberac - gtr/vox
James Gadson - drums

*** THIS IS A 24-BIT FILESET NOT INTENDED FOR AUDIO CD ***

SOURCE: studio projects LSDII (mid/side) > busman t-mod edirol r4 (24/96)
PROCESSING: soundforge 8.0 (tracking, fades, mix [65% side, 35% mid]) > flac 1.2.0a

01 intro
02 Hello Operator
03 Papa Was A Rolling Stone
04 I Blew Up The United States > Sunshine Superfly
05 Where Did Your Heart Go?
06 Your Luck Won't Last
07 From The Head To The Heart
08 Semi-Interesting Week
09 Walk The Dinosaur
10 I Feel Better Than James Brown
11 Tell Me That I'm Dreaming
12 Robot Girl
13 Wheel Me Out
14 Out Come the Freaks
15 Crazy Water
16 11 MPH
17 Knocked Down, Made Small


Collection WasNotWas
Band/Artist Was (Not Was)
Date May 3, 2008
Venue Ram's Head Onstage
Location Annapolis MD

Source studio projects LSDII (mid/side) > busman t-mod edirol r4 (24/96)
Lineage soundforge 8.0 (tracking, fades, mix [65% side, 35% mid]) > flac 1.2.0a
Taped by Peter W. King
Transferred by Peter W. King


Notes

length expanded size cdr WAVE problems fmt ratio filename
1:33.200 53683244 B cxx -- ---xx flac 0.4967 wasnotwas2008-05-03_lsdII_t01.flac
4:06.000 141696044 B cxx -- ---xx flac 0.6054 wasnotwas2008-05-03_lsdII_t02.flac
6:15.800 216460844 B cxx -- ---xx flac 0.5703 wasnotwas2008-05-03_lsdII_t03.flac
9:08.500 315936044 B cxx -- ---xx flac 0.5647 wasnotwas2008-05-03_lsdII_t04.flac
6:51.900 237254444 B cxx -- ---xx flac 0.5435 wasnotwas2008-05-03_lsdII_t05.flac
4:29.700 155347244 B cxx -- ---xx flac 0.5854 wasnotwas2008-05-03_lsdII_t06.flac
3:34.900 123782444 B cxx -- ---xx flac 0.4784 wasnotwas2008-05-03_lsdII_t07.flac
7:28.800 258508844 B cxx -- ---xx flac 0.5511 wasnotwas2008-05-03_lsdII_t08.flac
6:51.100 236793644 B cxx -- ---xx flac 0.5854 wasnotwas2008-05-03_lsdII_t09.flac
5:05.400 175910444 B cxx -- ---xx flac 0.5527 wasnotwas2008-05-03_lsdII_t10.flac
2:35.700 89683244 B cxx -- ---xx flac 0.5857 wasnotwas2008-05-03_lsdII_t11.flac
3:41.600 127641644 B cxx -- ---xx flac 0.5883 wasnotwas2008-05-03_lsdII_t12.flac
3:00.400 103910444 B cxx -- ---xx flac 0.5852 wasnotwas2008-05-03_lsdII_t13.flac
4:04.800 141004844 B cxx -- ---xx flac 0.5669 wasnotwas2008-05-03_lsdII_t14.flac
4:21.300 150508844 B cxx -- ---xx flac 0.5747 wasnotwas2008-05-03_lsdII_t15.flac
4:04.600 140889644 B cxx -- ---xx flac 0.5927 wasnotwas2008-05-03_lsdII_t16.flac
3:59.300 137836844 B cxx -- ---xx flac 0.6040 wasnotwas2008-05-03_lsdII_t17.flac
81:13.000 2806848748 B 0.5677 (17 files)

Reviews

There are no reviews yet. Be the first one to write a review.
Download Options
1.5G
24BIT FLAC
63.2M
OGG VORBIS
2.7K
TEXT
60.6K
TORRENT
111.4M
VBR M3U
111.4M
VBR MP3
-
VBR ZIP
In Collection
Was (Not Was)
In Collection
Live Music Archive
Uploaded by
peterwking
on 5/18/2008
Views
180
Favorites
1
PEOPLE ALSO FOUND
Was (Not Was)
by Was (Not Was)
291
1
0
Source: mbho 603a/ka200n (cardioid, ORTF) > sound devices mp2 > busman t-mod edirol r4 (24/96)
Was (Not Was)
by Was (Not Was)
2,165
2
0
Source: mbho 603a/ka200n (cardioid, ORTF) > sound devices mp2 > busman t-mod edirol r4 (24/96)
Was (Not Was)
by Was (Not Was)
180
1
0
Source: studio projects LSDII (mid/side) > busman t-mod edirol r4 (24/96)
Was (Not Was)
by Was (Not Was)
4,406
2
1
( 1 reviews )
Source: schoeps mk4v > vms02ib > sony tcd-d8 (16/48)
Was (Not Was)
by Was (Not Was)
9,011
5
2
( 2 reviews )
Source: schoeps mk4v > vms02ib > modSBM > jb3 (16/48)
Jazzam
by Jazzam
337
0
0
Source: (DSBD + mbho 603a/ka200n > mp2) > t-mod edirol r4
Railroad Earth
by Railroad Earth
46
0
0
Source: studio projects LSD2 (xy) > busman t-mod edirol r4 (24/96)
Wayne Horvitz
by Wayne Horvitz
67
0
0
Source: Core sound binaurals (omni, on stand, 7') > Sony SBM-1 > Sony TCD-D8
Birdie Busch
by Birdie Busch
217
0
0
Source: mbho 603a/ka200n (cardioid) > sound devices mp-2 > edirol r09 (24/48)
Paradigm
by paradigm
175
0
0
Source: (DSBD + mbho 603a/ka200n > mp2) > t-mod edirol r4